<?xml version="1.0" standalone="no"?> <!DOCTYPE svg PUBLIC "-//W3C//DTD SVG 1.0//EN" "http://www.w3.org/TR/2001/REC-SVG-20010904/DTD/svg10.dtd" > <svg xmlns="http://www.w3.org/2000/svg" width="100%" height="100%">
<defs >
<font id="klintpro-regular" horiz-adv-x="507" ><font-face
    font-family="Klint Pro"
    units-per-em="1000"
    panose-1="2 13 5 3 2 2 4 8 2 4"
    ascent="909"
    descent="-250"
    alphabetic="0" />
<missing-glyph horiz-adv-x="576" d="M46 651Q46 680 75 680H502Q531 680 531 651V29Q531 0 502 0H75Q46 0 46 29V651ZM230 254V316Q287 316 325 319T385 336T416 375T425 444V460Q425 499 418 524T392 563T343 582T265 588Q242 588 221 587T183 583Q164 580 147
578Q147 570 148 562T150 544Q167 546 185 548Q201 550 221 551T265 553Q301 553 323 549T358 534T375 505T380 459V443Q380 416 375 398T357 370T320 355T258 350H189V254H230ZM179 113Q179 96 183 90T209 84Q229 84 233 90T238 113Q238 130 234 135T209 141Q188
141 184 136T179 113Z" />
<glyph unicode=" " glyph-name="space" horiz-adv-x="285" />
<glyph unicode="!" glyph-name="exclam" horiz-adv-x="260" d="M113 263Q108 303 104 352Q101 394 99 452T96 582V680H173V584Q173 511 170 452T164 351Q160 302 156 263H113ZM91 32Q91 45 92 53T97 66T111 73T135 75Q150 75 159 73T172 67T177 54T178 32Q178
19 177 11T172 -1T159 -8T135 -10Q104 -10 98 -2T91 32Z" />
<glyph unicode="&quot;" glyph-name="quotedbl" horiz-adv-x="383" d="M247 680H315L303 420H255L247 680ZM67 680H134L121 420H74L67 680Z" />
<glyph unicode="#" glyph-name="numbersign" horiz-adv-x="567" d="M110 173H29V225H115L143 482H57V534H148L165 680H223L207 534H376L393 680H451L435 534H529V482H429L402 225H502V173H397L378 0H319L337 173H168L150 0H92L110 173ZM343 225L372 482H202L174 225H343Z" />
<glyph unicode="$" glyph-name="dollar" horiz-adv-x="541" d="M70 3Q71 17 72 31T73 60Q76 60 89 58T124 54T172 51T232 49Q287 49 322 54T376 72T402 108T409 167Q409 195 407 214T396 247T367 271T314 293L215 325Q170 340 140 353T92 387T67 437T59 514Q59
559 68 591T99 643T154 674T239 688V760H297V690Q326 689 353 687T402 683Q427 680 448 677L445 621Q442 621 429 622T396 626T351 629T300 631Q247 631 214 627T162 611T136 575T129 515Q129 482 132 463T147 431T181 409T240 388L348 354Q391 340 417 326T458
292T478 242T483 168Q483 121 474 89T443 36T385 5T297 -8V-111H239V-10Q203 -10 172 -8T118 -3Q92 0 70 3Z" />
<glyph unicode="%" glyph-name="percent" horiz-adv-x="707" d="M182 407Q142 407 116 414T75 438T53 482T47 549Q47 589 53 616T74 659T116 683T182 690Q222 690 248 683T290 660T312 616T319 549Q319 509 313 482T291 439T249 415T182 407ZM468 680H529L232
0H170L468 680ZM182 457Q207 457 223 460T248 474T260 502T263 549Q263 578 260 596T248 623T223 636T182 640Q157 640 142 637T117 624T105 596T102 549Q102 520 105 502T117 474T141 461T182 457ZM389 133Q389 173 395 200T416 243T458 267T525 274Q565 274 591
267T632 244T654 200T661 133Q661 93 655 66T633 23T591 -1T525 -9Q485 -9 459 -2T417 22T395 66T389 133ZM444 133Q444 104 447 86T459 58T483 45T525 41Q550 41 566 44T590 58T602 86T605 133Q605 162 602 180T591 207T566 220T525 224Q499 224 484 221T459 208T447
180T444 133Z" />
<glyph unicode="&amp;" glyph-name="ampersand" horiz-adv-x="660" d="M63 204Q63 250 79 277T115 319Q138 336 167 342V344Q140 352 119 370Q101 386 87 413T72 486V506Q72 558 82 593T116 649T175 680T263 690Q275 690 287 690T311 688Q331 687 348 686T379
683Q394 681 405 680V625Q386 626 365 628Q347 629 325 630T280 631Q238 631 212 625T170 605T150 567T144 505V484Q144 448 155 426T185 391T226 375T272 371H419L435 482H481V371H614V313H481V140Q481 86 497 67T546 48Q559 48 572 49T595 51T611 54T618 55L622
0Q609 -3 594 -5Q566 -10 527 -10Q492 -10 472 0T441 22Q429 36 424 55H420Q410 36 390 22Q373 10 343 0T264 -10Q215 -10 178 -2T115 25T76 77T63 158V204ZM134 166Q134 100 169 74T272 48Q414 48 414 143V313H269Q206 313 170 290T134 208V166Z" />
<glyph unicode="&apos;" glyph-name="quotesingle" horiz-adv-x="244" d="M89 680H156L145 420H97L89 680Z" />
<glyph unicode="(" glyph-name="parenleft" horiz-adv-x="340" d="M47 267Q47 387 59 471T97 607T166 684T271 709Q279 709 289 709T310 707V648Q291 650 273 648Q228 647 198 625T150 557T125 439T117 267Q117 166 124 95T150 -23T199 -90T274 -113Q291 -114
299 -114T310 -113V-173Q300 -174 290 -174T272 -175Q211 -175 168 -151T98 -74T59 63T47 267Z" />
<glyph unicode=")" glyph-name="parenright" horiz-adv-x="340" d="M30 -113Q32 -113 40 -113T66 -113Q110 -113 140 -92T188 -25T215 93T223 267Q223 368 215 440T189 558T140 625T66 648Q49 650 30 648V707Q40 708 50 708T70 709Q131 709 174 685T243 608T281
471T293 267Q293 147 281 63T242 -73T173 -150T69 -175Q60 -175 50 -175T30 -173V-113V-113Z" />
<glyph unicode="*" glyph-name="asterisk" horiz-adv-x="386" d="M175 488L63 420L35 467L158 520L43 583L70 630L178 550L176 680H231L215 547L329 615L357 568L233 515L348 452L320 406L212 485Q212 451 213 419T214 354H160L175 488Z" />
<glyph unicode="+" glyph-name="plus" horiz-adv-x="548" d="M245 289H96V345H245V493H302V345H452V289H302V141H245V289Z" />
<glyph unicode="," glyph-name="comma" horiz-adv-x="255" d="M74 40Q74 55 75 65T81 80T97 87T125 89Q143 89 154 87T170 74T178 45T180 -7Q180 -39 179 -66T176 -114Q174 -138 172 -156H128V-10Q110 -10 100 -8T83 -1T76 15T74 40Z" />
<glyph unicode="-" glyph-name="hyphen" horiz-adv-x="430" d="M68 354H363V295H68V354Z" />
<glyph unicode="." glyph-name="period" horiz-adv-x="255" d="M78 40Q78 55 79 64T85 79T100 86T128 88Q146 88 156 87T171 80T177 65T178 40Q178 25 177 15T171 0T156 -8T128 -10Q110 -10 100 -8T85 -1T79 15T78 40Z" />
<glyph unicode="/" glyph-name="slash" horiz-adv-x="321" d="M210 680H277L122 0H54L210 680Z" />
<glyph unicode="0" glyph-name="zero" horiz-adv-x="541" d="M271 -10Q205 -10 163 4T97 57T64 164T55 339Q55 446 64 514T97 622T163 675T271 690Q337 690 378 676T444 622T477 515T486 339Q486 232 477 164T444 58T379 5T271 -10ZM271 48Q317 48 345 59T388
101T408 190T413 339Q413 432 408 489T388 578T345 621T271 632Q224 632 196 621T153 578T134 489T129 339Q129 247 133 190T153 102T196 59T271 48Z" />
<glyph unicode="1" glyph-name="one" horiz-adv-x="541" d="M84 57H247V599L94 505L76 557L255 680H322V57H466V0H84V57Z" />
<glyph unicode="2" glyph-name="two" horiz-adv-x="541" d="M77 48Q77 84 81 109T95 155T125 196T174 242L332 380Q351 397 363 409T381 436T390 469T392 515Q392 552 387 574T364 610T315 627T233 632Q206 632 183 631T141 627Q120 624 102 622L99 677Q119 680
142 683Q162 685 188 687T243 690Q309 690 352 682T420 655T455 603T465 520Q465 482 461 457T447 412T419 375T377 334L214 194Q190 174 177 160T157 133T149 102T147 57H465V0H77V48Z" />
<glyph unicode="3" glyph-name="three" horiz-adv-x="541" d="M86 58Q105 55 127 53Q146 51 169 50T219 48Q266 48 298 54T349 73T377 109T386 163V205Q386 265 351 289T251 313H136V372H250Q276 372 299 378T339 398T366 433T376 484V505Q376 542 370 566T347
605T300 626T223 632Q197 632 173 630T129 626Q106 623 86 621L83 677Q103 680 128 683Q149 685 176 687T235 690Q299 690 340 682T406 654T439 597T449 506V486Q449 441 434 414T401 370Q380 352 354 344V342Q383 336 406 319Q426 305 442 278T458 204V161Q458
112 446 79T406 27T337 -1T235 -10Q203 -10 176 -8T128 -4Q103 -1 83 3L86 58Z" />
<glyph unicode="4" glyph-name="four" horiz-adv-x="541" d="M20 224L331 680H439V232H521V177H439V0H369V177H20V224ZM89 229Q91 229 116 230T182 232H369V477Q369 541 371 585T376 637L373 638Q371 634 364 621T344 588T317 545T285 497L150 305Q140 290 130
277T110 254T95 238T88 231L89 229Z" />
<glyph unicode="5" glyph-name="five" horiz-adv-x="541" d="M85 58Q105 55 128 53Q148 51 172 50T224 48Q269 48 300 54T351 74T378 110T387 166V229Q387 288 352 312T252 337H100V680H434V623H167V393H259Q305 393 342 385T405 359T445 309T459 229V166Q459
113 445 79T403 26T333 -2T232 -10Q201 -10 174 -8T126 -4Q101 -1 81 3L85 58Z" />
<glyph unicode="6" glyph-name="six" horiz-adv-x="541" d="M69 513Q69 561 79 594T114 649T183 680T292 690Q322 690 349 688T397 683Q421 680 442 677L438 622Q417 624 393 626Q373 628 348 629T295 631Q255 631 226 628T177 612T149 577T139 515V398Q159 406
196 414T283 423Q329 423 364 420T423 401T459 355T471 268V162Q471 105 459 71T421 19T359 -4T271 -10Q221 -10 184 -5T121 19T82 71T69 162V513ZM139 164Q139 125 146 102T170 68T211 53T271 49Q305 49 330 52T371 68T395 103T403 167V266Q403 303 395 323T370
353T326 364T262 366Q222 366 191 359T139 343V164Z" />
<glyph unicode="7" glyph-name="seven" horiz-adv-x="541" d="M400 618V623H68V680H474V625L210 0H134L400 618Z" />
<glyph unicode="8" glyph-name="eight" horiz-adv-x="541" d="M49 205Q49 248 64 275T100 317Q123 335 152 343V346Q125 356 105 375Q87 391 73 418T58 488V506Q58 557 68 592T102 649T168 680T271 690Q333 690 374 681T439 649T474 592T484 506V488Q484 446 469
419T437 375Q416 356 390 346V343Q418 335 441 317Q461 302 477 275T493 205V158Q493 69 441 30T271 -10Q154 -10 102 29T49 158V205ZM290 371Q344 371 379 401T415 483V503Q415 538 410 562T389 602T345 624T271 631Q225 631 197 624T154 602T133 563T127 503V483Q127
431 162 401T251 371H290ZM119 165Q119 105 152 77T271 48Q357 48 390 76T423 165V206Q423 259 389 286T290 314H252Q188 314 154 287T119 206V165Z" />
<glyph unicode="9" glyph-name="nine" horiz-adv-x="541" d="M103 59Q124 56 148 53Q168 51 193 50T245 48Q285 48 315 51T364 67T393 102T403 165V281Q381 274 344 266T256 257Q210 257 175 260T117 279T81 325T69 413V519Q69 575 81 609T119 661T182 684T270
690Q320 690 358 685T421 661T458 609T471 519V165Q471 118 461 85T426 31T357 0T248 -10Q218 -10 191 -8T143 -4Q119 -1 99 3L103 59ZM277 314Q319 314 351 321T403 336V516Q403 555 395 578T371 612T330 627T270 631Q236 631 211 628T170 613T147 578T139 516V414Q139
376 147 356T171 327T214 316T277 314Z" />
<glyph unicode=":" glyph-name="colon" horiz-adv-x="255" d="M127 417Q111 417 102 419T88 426T82 439T81 462Q81 476 82 484T87 498T101 504T127 506Q143 506 152 505T166 498T172 485T173 462Q173 448 172 440T167 426T153 419T127 417ZM81 35Q81 49 82 57T87
71T101 78T127 80Q143 80 152 78T166 71T172 58T173 35Q173 21 172 13T167 -1T153 -8T127 -10Q111 -10 102 -8T88 -1T82 12T81 35Z" />
<glyph unicode=";" glyph-name="semicolon" horiz-adv-x="255" d="M125 417Q108 417 99 419T86 426T81 439T80 462Q80 476 81 484T86 498T99 504T125 506Q141 506 150 505T164 498T170 485T171 462Q171 448 170 440T165 426T151 419T125 417ZM79 35Q79 49 80 58T85
72T99 79T125 81Q141 81 151 79T167 67T174 41T176 -7Q176 -36 175 -61T172 -104Q170 -125 168 -143H125V-10Q108 -10 99 -8T86 -1T80 12T79 35Z" />
<glyph unicode="&lt;" glyph-name="less" horiz-adv-x="543" d="M132 306L412 544V470L241 320Q222 303 209 293T186 278Q175 272 167 269V265Q175 262 186 255Q204 243 241 212L412 64V-10L132 227V306Z" />
<glyph unicode="=" glyph-name="equal" horiz-adv-x="545" d="M113 461H433V406H113V461ZM113 219H433V164H113V219Z" />
<glyph unicode="&gt;" glyph-name="greater" horiz-adv-x="543" d="M132 64L302 212Q321 229 335 239T358 255Q369 262 376 265V269Q369 271 358 278Q349 283 335 293T302 321L132 470V544L412 306V227L132 -10V64Z" />
<glyph unicode="?" glyph-name="question" horiz-adv-x="441" d="M124 395H204Q245 395 272 400T315 417T337 450T344 503V523Q344 554 338 575T317 608T277 626T212 631Q186 631 162 630T120 626Q99 624 80 622L76 677Q96 680 120 683Q140 685 165 687T220 690Q278
690 316 683T376 658T408 608T417 527V505Q417 452 406 420T369 371T298 349T189 343L186 264H124V395ZM112 32Q112 45 113 53T118 66T130 73T154 75Q169 75 178 73T191 67T196 54T197 32Q197 19 196 11T191 -1T178 -8T154 -10Q139 -10 131 -8T118 -2T113 11T112
32Z" />
<glyph unicode="@" glyph-name="at" horiz-adv-x="846" d="M66 306Q76 409 97 481T161 600T275 668T459 690Q561 690 626 669T729 607T778 504T786 359Q780 262 765 200T726 102T675 53T615 39Q571 39 552 56T531 101H528Q510 83 484 70Q461 58 428 49T349 39Q293
39 263 57T220 106T206 176T210 256L217 322Q224 388 237 431T272 499T326 534T402 544Q430 544 457 540T507 529T548 517T575 508L584 534H638L596 133Q593 105 603 97T631 88Q647 88 663 100T693 143T718 226T734 358Q739 430 731 483T693 571T606 624T456 642Q355
642 293 623T195 564T143 460T118 306Q110 220 111 147T138 23T223 -54T392 -68L388 -115Q308 -123 251 -113T156 -77T97 -13T67 75T59 183T66 306ZM278 256Q276 232 275 204T282 152T310 112T371 96Q409 96 437 104T486 124T517 149T531 172L563 458Q544 466 506
476T421 487Q389 487 366 481T327 456T301 405T285 320L278 256Z" />
<glyph unicode="A" glyph-name="A" horiz-adv-x="601" d="M252 680H349L563 0H488L426 195H175L113 0H39L252 680ZM413 250L340 490Q329 525 322 552T310 598Q305 619 302 635H299Q295 619 290 598Q281 560 260 490L187 250H413Z" />
<glyph unicode="B" glyph-name="B" horiz-adv-x="599" d="M90 680Q115 682 145 685Q171 687 205 688T278 690Q353 690 401 682T476 653T515 597T526 506V486Q526 440 511 413T479 370Q458 352 432 344V342Q460 336 483 319Q502 305 518 278T534 204V158Q534 110
520 78T476 26T397 -2T278 -10Q239 -10 205 -9T145 -5Q115 -3 90 0V680ZM328 370Q386 370 420 398T455 492V502Q455 540 448 565T423 604T370 625T282 631Q263 631 242 631T204 629T176 628T164 627V370H328ZM164 53Q184 51 214 50T282 48Q333 48 367 54T423 74T453
110T462 166V205Q462 266 427 290T328 314H164V53Z" />
<glyph unicode="C" glyph-name="C" horiz-adv-x="513" d="M312 -10Q233 -10 186 4T113 56T81 163T73 339Q73 447 80 515T113 623T185 676T312 690Q342 690 369 688T418 683Q443 680 464 677L461 621Q459 621 448 622T418 626T378 629T333 631Q267 631 230 622T174
582T151 494T146 339Q146 243 151 186T174 99T230 59T333 49Q355 49 377 50T418 54T447 57T461 59Q462 45 463 31T464 3Q443 -1 418 -4Q397 -6 370 -8T312 -10Z" />
<glyph unicode="D" glyph-name="D" horiz-adv-x="622" d="M100 680Q128 682 161 685Q189 687 225 688T303 690Q390 690 439 674T514 617T545 509T551 339Q551 238 545 171T514 63T440 7T303 -10Q265 -10 229 -9T164 -5Q131 -3 100 0V680ZM174 55Q198 53 232 51T307
49Q368 49 402 61T452 105T473 193T477 339Q477 428 473 485T453 574T402 619T307 631Q286 631 263 630T219 628Q196 627 174 626V55Z" />
<glyph unicode="E" glyph-name="E" horiz-adv-x="527" d="M90 680H463V622H165V390H437V332H165V58H463V0H90V680Z" />
<glyph unicode="F" glyph-name="F" horiz-adv-x="508" d="M90 680H463V622H165V362H437V303H165V0H90V680Z" />
<glyph unicode="G" glyph-name="G" horiz-adv-x="588" d="M324 -10Q239 -10 189 4T114 56T81 163T73 339Q73 447 82 515T120 623T201 676T337 690Q369 690 398 687T449 680Q475 676 496 671L490 616Q488 616 476 618T444 623T400 628T352 631Q284 631 244 621T181
580T153 492T146 339Q146 247 150 191T173 103T228 60T328 49Q359 49 388 52T437 60V280H314V335H505V14Q480 7 451 2Q426 -3 393 -6T324 -10Z" />
<glyph unicode="H" glyph-name="H" horiz-adv-x="657" d="M90 680H165V372H493V680H567V0H493V313H165V0H90V680Z" />
<glyph unicode="I" glyph-name="I" horiz-adv-x="271" d="M98 680H173V0H98V680Z" />
<glyph unicode="J" glyph-name="J" horiz-adv-x="428" d="M41 59Q43 59 53 58T78 54T111 51T149 49Q191 49 214 60T250 101T264 182T267 314V680H340V314Q340 222 335 160T312 61T259 7T162 -10Q136 -10 114 -8T74 -4Q55 -1 38 3L41 59Z" />
<glyph unicode="K" glyph-name="K" horiz-adv-x="613" d="M90 680H165V379H274L467 680H551L338 351L489 83Q500 63 515 59T544 55H561Q565 55 569 56L571 0Q565 -3 556 -5Q539 -10 515 -10Q480 -10 459 6T420 55L275 320H165V0H90V680Z" />
<glyph unicode="L" glyph-name="L" horiz-adv-x="475" d="M90 680H165V58H436V0H90V680Z" />
<glyph unicode="M" glyph-name="M" horiz-adv-x="855" d="M145 680H242L377 243Q391 198 400 162T415 100Q422 69 426 46H430Q433 70 439 101Q444 127 453 162T476 243L613 680H710L784 0H710L667 448Q663 490 662 523T659 580Q658 607 658 629H654Q650 605 643
576Q637 551 628 518T608 447L470 0H385L247 447Q235 486 226 519T211 577Q204 605 200 629H196Q196 607 195 580Q193 530 186 447L145 0H71L145 680Z" />
<glyph unicode="N" glyph-name="N" horiz-adv-x="664" d="M90 680H177L423 243Q463 171 484 123T514 52H518Q514 79 509 125T502 258L501 680H573V0H488L242 429Q194 513 175 559T149 626H145Q147 612 154 559T161 415L163 0H90V680Z" />
<glyph unicode="O" glyph-name="O" horiz-adv-x="631" d="M315 -10Q236 -10 189 4T116 57T82 164T73 339Q73 447 81 515T115 622T188 675T315 690Q394 690 442 676T516 622T550 515T558 339Q558 232 550 164T516 58T442 5T315 -10ZM315 49Q374 49 408 60T459 102T480
190T485 339Q485 432 481 489T459 577T408 620T315 631Q256 631 222 620T171 578T150 489T146 339Q146 247 150 191T171 103T222 60T315 49Z" />
<glyph unicode="P" glyph-name="P" horiz-adv-x="590" d="M90 680Q116 682 147 685Q173 687 207 688T279 690Q366 690 416 682T493 649T527 581T535 468Q535 399 528 356T494 289T417 257T282 248Q246 248 216 249T165 252V0H90V680ZM165 307Q186 305 217 305T283
304Q346 304 382 310T435 333T457 383T462 468Q462 520 458 552T436 602T382 625T283 631Q248 631 217 631T165 628V307Z" />
<glyph unicode="Q" glyph-name="Q" horiz-adv-x="631" d="M307 -10Q231 -9 185 6T114 59T81 165T73 339Q73 447 81 515T115 622T188 675T315 690Q394 690 442 676T516 622T550 515T558 339Q558 246 552 183T528 79T478 20T391 -6L441 -165H374L324 -10H307ZM315
49Q374 49 408 60T459 102T480 190T485 339Q485 432 481 489T459 577T408 620T315 631Q256 631 223 620T172 578T151 489T146 339Q146 247 150 191T171 103T222 60T315 49Z" />
<glyph unicode="R" glyph-name="R" horiz-adv-x="614" d="M90 680Q116 682 147 685Q173 687 207 688T279 690Q361 690 411 682T488 650T525 588T534 485Q534 439 528 406T505 349T459 313T384 294L490 81Q499 64 511 60T542 55Q552 55 559 55T567 56V0Q561 -3
553 -5Q538 -10 511 -10Q452 -10 424 51L311 283H165V0H90V680ZM282 339Q339 339 374 344T428 366T455 410T462 485Q462 531 456 559T430 604T375 625T282 631Q248 631 218 631T165 628V339H282Z" />
<glyph unicode="S" glyph-name="S" horiz-adv-x="552" d="M79 60Q99 57 125 55Q146 53 175 52T238 50Q293 50 327 54T381 72T408 108T415 168Q415 195 414 214T405 246T382 269T340 287L187 336Q148 349 124 363T87 397T69 444T64 513Q64 564 75 598T114 652T185
681T296 690Q326 690 354 688T405 683Q431 680 454 677L450 619L405 624Q385 626 359 628T305 630Q253 630 221 626T170 609T144 574T137 515Q137 487 139 468T149 437T171 416T212 399L368 350Q408 337 431 322T467 286T484 237T488 169Q488 117 477 83T438 28T365
-1T250 -10Q213 -10 181 -8T126 -4Q98 -1 75 3L79 60Z" />
<glyph unicode="T" glyph-name="T" horiz-adv-x="516" d="M221 622H38V680H478V622H295V0H221V622Z" />
<glyph unicode="U" glyph-name="U" horiz-adv-x="636" d="M318 -10Q240 -10 194 6T123 63T91 170T83 339V680H157V339Q157 253 161 197T182 108T230 62T318 49Q374 49 406 62T455 108T475 197T479 339V680H553V339Q553 238 546 171T515 63T444 7T318 -10Z" />
<glyph unicode="V" glyph-name="V" horiz-adv-x="594" d="M35 680H111L243 247Q258 198 267 161T283 98Q290 68 294 46H298Q301 68 308 99Q314 125 323 162T349 248L483 680H559L345 0H248L35 680Z" />
<glyph unicode="W" glyph-name="W" horiz-adv-x="892" d="M35 680H112L216 225Q226 183 232 149T243 91Q247 63 250 42H255Q256 63 260 91Q263 115 269 149T287 225L404 680H490L605 225Q615 183 621 150T632 93Q636 65 638 42H642Q645 65 649 93Q653 117 659
150T675 225L781 680H858L692 0H595L484 433Q472 479 465 516T454 581Q450 613 448 638H444Q442 613 438 581Q434 554 427 516T409 433L298 0H201L35 680Z" />
<glyph unicode="X" glyph-name="X" horiz-adv-x="605" d="M240 343L52 680H134L244 476Q255 455 265 436T282 403Q290 386 296 372H301Q307 387 316 404Q323 418 333 437T355 476L472 680H554L358 343L553 0H471L354 210Q342 230 332 249T315 282Q306 299 300
313H296Q289 298 280 281Q272 267 263 248T242 208L134 0H52L240 343Z" />
<glyph unicode="Y" glyph-name="Y" horiz-adv-x="564" d="M241 307L32 680H113L224 477Q236 454 245 432T262 391Q270 370 275 351H279Q285 370 293 391Q300 409 309 431T332 476L450 680H532L314 307V0H241V307Z" />
<glyph unicode="Z" glyph-name="Z" horiz-adv-x="496" d="M56 55L351 618V622H64V680H432V625L139 61V58H439V0H56V55Z" />
<glyph unicode="[" glyph-name="bracketleft" horiz-adv-x="314" d="M284 -113V-165H47V699H284V648L115 638V-104L284 -113Z" />
<glyph unicode="\" glyph-name="backslash" horiz-adv-x="321" d="M54 680H122L277 0H210L54 680Z" />
<glyph unicode="]" glyph-name="bracketright" horiz-adv-x="314" d="M199 -104V638L30 648V699H268V-165H30V-113L199 -104Z" />
<glyph unicode="^" glyph-name="asciicircum" horiz-adv-x="560" d="M243 680H317L512 409H445L322 576Q309 594 302 607T289 629Q284 640 281 647H278Q276 640 271 629Q266 620 259 607T238 576L114 409H48L243 680Z" />
<glyph unicode="_" glyph-name="underscore" horiz-adv-x="486" d="M486 -29V-76H0V-29H486Z" />
<glyph unicode="`" glyph-name="grave" horiz-adv-x="355" d="M116 709H178L237 589H175L116 709Z" />
<glyph unicode="a" glyph-name="a" horiz-adv-x="513" d="M54 158Q54 233 92 271T220 310Q268 310 305 305T365 296V350Q365 389 361 415T344 457T303 480T230 487Q205 487 182 486T141 483T112 480T97 478V534Q118 536 143 539Q163 541 189 542T242 544Q305 544
342 533T400 497T427 436T434 348V0H379L373 26Q364 22 349 16T313 4T267 -6T213 -10Q139 -10 97 25T54 144V158ZM122 149Q122 95 147 71T238 46Q281 46 313 55T365 73V249Q348 253 316 257T238 261Q175 261 149 238T122 160V149Z" />
<glyph unicode="b" glyph-name="b" horiz-adv-x="543" d="M80 699H148V510Q170 518 215 531T314 544Q360 544 391 534T442 496T471 423T480 303V229Q480 154 470 108T435 35T369 0T267 -10Q241 -10 209 -9T148 -5Q115 -2 80 1V699ZM148 52Q171 50 202 49T259 48Q303
48 332 53T379 78T404 133T411 229V297Q411 360 404 397T383 455T345 481T290 487Q243 487 206 476T148 457V52Z" />
<glyph unicode="c" glyph-name="c" horiz-adv-x="450" d="M261 -10Q194 -10 155 2T95 46T69 131T63 267Q63 349 69 403T95 488T154 531T262 544Q291 544 314 542T356 538Q376 535 394 532L391 476L356 481Q339 483 318 485T271 487Q223 487 195 479T154 446T137
379T133 267Q133 198 136 155T153 89T195 57T271 48Q297 48 318 49T356 53Q374 55 391 58L394 3Q377 -1 356 -4Q338 -6 314 -8T261 -10Z" />
<glyph unicode="d" glyph-name="d" horiz-adv-x="543" d="M228 -10Q183 -10 152 0T101 36T72 109T63 228V303Q63 376 72 423T101 497T152 534T228 544Q255 544 280 540T328 531T367 520T395 510V699H464V0H409L403 26Q394 23 377 17T336 5T285 -5T228 -10ZM252
48Q297 48 336 58T395 76V457Q376 465 337 476T252 487Q220 487 197 481T160 455T139 398T132 299V233Q132 171 138 135T159 79T197 54T252 48Z" />
<glyph unicode="e" glyph-name="e" horiz-adv-x="529" d="M131 227Q132 172 141 138T168 83T213 56T279 48Q317 48 348 51T403 60Q429 65 451 72L455 17Q433 9 405 3Q381 -2 347 -6T271 -10Q212 -10 173 3T108 47T73 132T62 267Q62 345 72 398T107 484T172 530T273
544Q333 544 370 530T429 487T458 413T466 307Q466 290 465 276T463 250Q461 237 460 227H131ZM401 276Q401 287 401 297T402 316Q402 370 396 403T374 456T334 482T273 489Q234 489 207 481T162 450T137 385T129 276H401Z" />
<glyph unicode="f" glyph-name="f" horiz-adv-x="402" d="M114 428H56V484H114V543Q114 633 151 671T256 709Q280 709 302 706T341 700Q360 696 378 691L373 638Q359 641 343 645Q329 647 311 649T274 652Q253 652 237 648T208 631T190 597T183 542V484H353V428H183V0H114V428Z"
/>
<glyph unicode="g" glyph-name="g" horiz-adv-x="527" d="M45 -51Q45 -18 58 2T88 33T121 47T143 52V54Q139 55 132 58T119 69T107 89T102 119Q102 174 147 187V189Q102 199 78 238T53 358Q53 407 60 442T87 499T145 531T241 543Q246 543 253 543T269 542L293
635H356L329 538Q369 533 394 520T433 485T451 432T456 358Q456 307 448 273T419 217T360 187T264 178H232Q190 178 177 166T163 130Q163 108 176 96T230 83H269Q334 83 374 76T438 54T469 15T478 -44Q478 -81 468 -106T434 -146T367 -168T260 -175Q192 -175 150
-169T85 -147T54 -109T45 -51ZM254 227Q300 227 326 233T366 254T383 294T387 359Q387 398 384 423T367 464T327 486T254 493Q208 493 182 487T142 465T125 424T121 359Q121 320 124 295T141 254T181 233T254 227ZM112 -46Q112 -67 116 -82T136 -106T180 -119T260
-123Q311 -123 341 -119T386 -106T405 -82T410 -46Q410 -24 406 -9T386 15T341 28T260 32Q213 32 185 29T140 16T118 -8T112 -46Z" />
<glyph unicode="h" glyph-name="h" horiz-adv-x="561" d="M80 699H148V510Q159 514 176 520T215 531T262 540T314 544Q360 544 391 534T442 497T471 424T480 307V0H411V305Q411 364 405 400T384 455T346 481T290 487Q245 487 207 476T148 457V0H80V699Z" />
<glyph unicode="i" glyph-name="i" horiz-adv-x="265" d="M133 616Q104 616 99 623T93 652Q93 676 98 683T133 690Q161 690 166 683T172 652Q172 630 167 623T133 616ZM98 534H167V0H98V534Z" />
<glyph unicode="j" glyph-name="j" horiz-adv-x="259" d="M144 616Q115 616 110 623T104 652Q104 676 109 683T144 690Q158 690 165 689T177 683T181 672T182 652Q182 630 177 623T144 616ZM109 534H178V-8Q178 -100 146 -137T51 -175Q30 -175 13 -174T-19 -170Q-35
-168 -48 -165L-45 -111Q-33 -113 -20 -114Q2 -117 39 -117Q54 -117 67 -113T89 -96T104 -62T109 -7V534Z" />
<glyph unicode="k" glyph-name="k" horiz-adv-x="541" d="M80 699H148V312H229L415 534H499L288 284L437 79Q448 64 461 60T491 55Q500 55 507 55T515 56L517 0Q511 -3 503 -5Q488 -10 467 -10Q438 -10 418 5T378 47L227 258H148V0H80V699Z" />
<glyph unicode="l" glyph-name="l" horiz-adv-x="265" d="M98 699H167V0H98V699Z" />
<glyph unicode="m" glyph-name="m" horiz-adv-x="829" d="M80 534H134L141 506Q150 510 166 516T203 529T250 539T304 544Q356 544 387 528T432 496Q441 501 457 509T494 525T541 538T595 544Q634 544 663 535T711 500T739 432T749 321V0H680V318Q680 373 673
406T651 458T617 481T570 487Q529 487 495 473T446 448V0H377V448Q372 458 350 472T281 487Q236 487 201 477T148 458V0H80V534Z" />
<glyph unicode="n" glyph-name="n" horiz-adv-x="561" d="M80 534H134L141 505Q150 509 168 515T209 528T259 539T315 544Q369 544 402 528T452 482T474 407T480 307V0H411V305Q411 365 405 401T384 456T346 481T290 487Q245 487 207 477T148 458V0H80V534Z" />
<glyph unicode="o" glyph-name="o" horiz-adv-x="547" d="M273 -10Q205 -10 164 3T101 47T71 132T63 267Q63 348 70 401T100 486T164 531T273 544Q341 544 382 531T446 487T476 402T484 267Q484 186 477 133T447 48T383 3T273 -10ZM273 47Q322 47 350 55T393 88T412
155T416 267Q416 336 412 379T394 446T351 478T273 487Q225 487 197 479T154 446T135 379T131 267Q131 198 135 155T153 88T196 56T273 47Z" />
<glyph unicode="p" glyph-name="p" horiz-adv-x="543" d="M148 -165H80V534H134L141 508Q150 511 167 517T208 529T258 539T314 544Q360 544 392 534T443 498T471 425T480 305V230Q480 158 471 112T443 38T392 1T314 -10Q287 -10 262 -6T215 3T176 14T148 24V-165ZM148
78Q168 70 205 59T290 48Q323 48 346 54T383 79T404 136T411 235V301Q411 363 405 400T384 456T346 481T290 487Q245 487 207 477T148 459V78Z" />
<glyph unicode="q" glyph-name="q" horiz-adv-x="543" d="M228 -10Q183 -10 152 0T101 38T72 111T63 230V305Q63 380 73 426T108 499T173 535T275 544Q301 544 333 543T395 539Q429 536 464 534V-165H395V24Q384 20 367 15T328 4T281 -6T228 -10ZM252 48Q298 48
337 59T395 78V482Q371 484 339 485T284 487Q240 487 211 482T164 457T139 400T132 300V235Q132 173 138 137T159 80T197 54T252 48Z" />
<glyph unicode="r" glyph-name="r" horiz-adv-x="378" d="M80 534H134L143 492Q152 498 166 507T200 524T243 538T294 544Q304 544 312 544T328 542Q336 541 342 540L338 479Q331 480 323 481Q316 482 308 482T290 483Q237 483 202 467T149 438V0H80V534Z" />
<glyph unicode="s" glyph-name="s" horiz-adv-x="474" d="M64 58Q85 55 110 53Q131 51 159 50T217 48Q263 48 289 52T330 67T348 94T352 134Q352 154 351 167T342 190T322 207T283 222L150 266Q118 277 100 288T71 314T58 351T55 405Q55 445 64 472T96 515T153
537T239 544Q268 544 296 542T346 538Q372 535 394 532L390 476Q370 478 347 481Q327 483 302 485T251 487Q209 487 184 483T145 470T127 444T123 403Q123 382 124 369T132 347T151 332T188 317L316 275Q351 264 371 252T402 224T416 186T419 133Q419 96 412 69T384
25T328 -1T233 -10Q197 -10 166 -8T111 -4Q84 -1 61 3L64 58Z" />
<glyph unicode="t" glyph-name="t" horiz-adv-x="411" d="M113 478H38V534H117L135 639H182V534H352V478H182V156Q182 123 186 102T198 69T220 53T253 48Q273 48 293 50T330 54Q348 57 366 61L369 7Q350 2 328 -2Q309 -5 286 -7T238 -10Q203 -10 179 -2T141 27T120
78T113 157V478Z" />
<glyph unicode="u" glyph-name="u" horiz-adv-x="561" d="M80 534H148V229Q148 169 155 133T176 78T214 54T269 48Q314 48 352 58T411 76V534H480V0H427L419 28Q410 25 393 19T352 6T301 -5T244 -10Q188 -10 156 6T107 54T85 129T80 227V534Z" />
<glyph unicode="v" glyph-name="v" horiz-adv-x="535" d="M28 534H97L220 204Q234 167 243 138T257 88Q263 63 266 45H270Q273 62 278 87Q283 107 291 137T314 205L438 534H507L308 0H226L28 534Z" />
<glyph unicode="w" glyph-name="w" horiz-adv-x="780" d="M38 534H107L189 204Q197 175 202 147T211 97Q215 71 218 48H222Q226 71 231 97Q236 119 242 147T256 204L352 534H429L523 204Q531 175 537 147T548 97Q553 71 557 48H561Q563 71 567 97Q570 119 575
147T589 204L673 534H742L599 0H520L433 310Q422 347 415 379T402 436Q396 464 393 488H389Q384 464 378 436Q373 412 366 380T347 310L259 0H179L38 534Z" />
<glyph unicode="x" glyph-name="x" horiz-adv-x="547" d="M220 267L48 534H122L211 398Q225 375 236 356T256 323Q265 306 272 294H275Q281 306 290 323Q298 337 309 356T336 399L425 534H499L325 267L499 0H425L335 137Q307 180 291 210Q282 226 275 240H271Q264
227 255 211Q247 197 236 178T210 136L122 0H48L220 267Z" />
<glyph unicode="y" glyph-name="y" horiz-adv-x="518" d="M29 -108Q44 -111 61 -113Q75 -115 92 -116T128 -117Q166 -117 190 -86T231 3L202 22L27 534H100L213 193Q223 163 230 136T243 87T250 53T253 39H257Q257 41 260 55T269 91T282 140T299 196L410 534H482L302
7Q286 -43 269 -78T231 -134T187 -165T133 -175Q111 -175 92 -173T57 -169Q39 -166 24 -162L29 -108V-108Z" />
<glyph unicode="z" glyph-name="z" horiz-adv-x="470" d="M62 55L327 475V478H68V534H402V475L138 59V56H407V0H62V55Z" />
<glyph unicode="{" glyph-name="braceleft" horiz-adv-x="359" d="M325 -114L327 -173Q319 -173 310 -174T289 -175Q245 -175 215 -163T167 -127T141 -69T133 10V109Q133 142 126 165T106 203T78 224T47 231V305Q62 305 77 311T105 333T125 371T133 428V527Q133
613 167 661T289 709Q300 709 309 709T327 707L325 649Q320 650 312 650T296 650Q241 649 222 616T203 526V425Q203 370 187 339T151 292Q128 274 100 269V267Q128 262 151 244Q171 228 187 197T203 112V10Q203 -47 222 -81T296 -115Q306 -115 315 -115T325 -114Z"
/>
<glyph unicode="|" glyph-name="bar" horiz-adv-x="214" d="M81 699H134V-165H81V699Z" />
<glyph unicode="}" glyph-name="braceright" horiz-adv-x="359" d="M33 -114Q34 -114 42 -114T61 -115Q116 -115 135 -81T155 10V112Q155 166 170 197T206 244Q229 262 258 267V269Q229 274 206 292Q186 308 171 339T155 425V526Q155 582 136 615T62 650Q54 650
46 650T33 649L30 707Q38 708 48 708T69 709Q156 709 190 661T225 527V428Q225 395 232 372T252 333T280 312T311 305V231Q296 231 281 225T253 203T233 165T225 109V10Q225 -34 217 -68T191 -126T143 -162T69 -175Q58 -175 48 -174T30 -173L33 -114V-114Z" />
<glyph unicode="~" glyph-name="asciitilde" horiz-adv-x="545" d="M113 339Q123 347 137 353Q148 358 164 363T201 368Q223 368 241 360T276 343T309 326T343 318Q360 318 374 321T399 330Q411 335 422 342L432 292Q421 284 408 278Q396 273 380 269T343 264Q320
264 303 271T269 288T236 304T201 312Q186 312 172 309T147 300Q134 295 123 289L113 339Z" />
</font>
</defs>
</svg>
